进击的巨人 第三季 – 進撃の巨人 Season 3[蓝光原盘] [最清晰版] [70G] [115网盘专用]

导演肥冢正史
编剧濑古浩司
主演梶裕贵 / 石川由依 / 井上麻里奈 / 小野大辅 / 神谷浩史 / 朴璐美 / 细谷佳正 / 桥诘知久 / 谷山纪章 / 下野纮 / 小林优 / 三上枝织 / 藤田咲 / 杉田智和 / 渡边明乃 / 土田大 / 子安武人
类型科幻|动画|灾难
官网http://www.bdiso.net
上映2018-07-21
地区日本
片长288 分钟
又名Shingeki no kyojin Season 3 / 進撃の巨人 3期
IMDBhttp://www.imdb.com/title/tt7029252
豆瓣https://movie.douban.com/subject/27072327/
热度已被 645 个高清发烧友收藏
发布2019-09-02 13:16:53
剧情  历经百年的时光,将人类与外侧世界隔开的墙壁。在墙壁的另一侧,似乎有前所未见的世界延伸开来。火焰之水、冰之大地、砂之雪原……记载在书中的,尽是些激发少年探究心的文字。在时间流转,墙壁被巨人毁坏的现在,人类正一步步接近世界的真相。巨人的真实身份是什么?为何墙壁中会埋着巨人?巨人化的艾伦·耶格尔所持有的“坐标”之力是?以及,西斯托利亚·雷斯究竟知道这个世界的什么事情?在艾伦等104期兵的加入下,建立新体制的利威尔班。最强最恶的敌人,阻拦在开始行动的他们面前。

日版 DIY简日双语字幕 Disc Label: DISC Disc Size: 22,718,254,297 bytes Protection: AACS BDInfo: 0.7.5.5 PLAYLIST REPORT: Name: 00000.MPLS Length: 1:11:48.053 (h:m:s.ms) Size: 21,842,737,152 bytes Total Bitrate: 40.56 Mbps VIDEO: Codec Bitrate Description —– ——- ———– MPEG-4 AVC Video 36148 kbps 1080p / 23.976 fps / 16:9 / High Profile 4.1 AUDIO: Codec Language Bitrate Description —– ——– ——- ———– LPCM Audio Japanese 2304 kbps 2.0 / 48 kHz / 2304 kbps / 24-bit SUBTITLES: Codec Language Bitrate Description —– ——– ——- ———– Presentation Graphics Chinese 293.415 kbps FILES: Name Time In Length Size Total Bitrate —- ——- —— —- ————- 00000.M2TS 0:00:00.000 0:23:56.017 7,279,755,264 40,555 00001.M2TS 0:23:56.017 0:23:56.017 7,291,097,088 40,618 00002.M2TS 0:47:52.035 0:23:56.017 7,271,884,800 40,511

资源下载此资源下载价格为14修复豆,请先
1: 支付问题请联系QQ号:289688409
2: 优惠套餐:
(1)捐助100豆得110豆
(2)捐助200豆得240豆
(3)捐助500豆得680豆
(4)捐助1000豆得1500豆
3: 海外朋友捐助優惠請联系邮箱:sclovezj@tom.com
4: 资源可以用迅雷/百度网盘/115 稳定下载 5:本站解压密码:www.4kxf.com 6:论坛服务器、维持论坛营运每月都要耗费一笔不菲的支出,捐助是对论坛的认可,为论坛整洁也未投放任何广告,本着自愿、为论坛分担经济压力的精神,此捐助非商业交易行为,会员捐助所得费用将用于服务器费用支出及论坛未来提升发展开支,希望大家理解支持。
    下载价格:14 修复豆
    VIP优惠:包年VIP免费
    下载说明:
    1: 支付问题请联系QQ号:289688409
    2: 优惠套餐:
    (1)捐助100豆得110豆
    (2)捐助200豆得240豆
    (3)捐助500豆得680豆
    (4)捐助1000豆得1500豆
    3: 海外朋友捐助優惠請联系邮箱:sclovezj@tom.com
    4: 资源可以用迅雷/百度网盘/115 稳定下载 5:本站解压密码:www.4kxf.com 6:论坛服务器、维持论坛营运每月都要耗费一笔不菲的支出,捐助是对论坛的认可,为论坛整洁也未投放任何广告,本着自愿、为论坛分担经济压力的精神,此捐助非商业交易行为,会员捐助所得费用将用于服务器费用支出及论坛未来提升发展开支,希望大家理解支持。
    0
    分享到:

    评论0

    请先

    声明:网站内容 系统自动转载自网络,如有侵权,请发邮件到 sclovezj@tom.com 本站将尽快删除!详情
    没有账号? 忘记密码?